<?xml version="1.0" standalone="no"?>
<!DOCTYPE svg PUBLIC "-//W3C//DTD SVG 1.1//EN" "http://www.w3.org/Graphics/SVG/1.1/DTD/svg11.dtd" >
<svg xmlns="http://www.w3.org/2000/svg">
<metadata>Generated by IcoMoon</metadata>
<defs>
<font id="icomoon" horiz-adv-x="1024">
<font-face units-per-em="1024" ascent="960" descent="-64" />
<missing-glyph horiz-adv-x="1024" />
<glyph unicode="&#x20;" horiz-adv-x="512" d="" />
<glyph unicode="&#xe900;" d="M1024 448c0-282.77-229.23-512-512-512s-512 229.23-512 512c0 282.77 229.23 512 512 512s512-229.23 512-512z" />
<glyph unicode="&#xe901;" d="M707.16 578.132l-59.058 59.058c-10.19 10.188-24.026 16.732-39.382 17.504l-75.496 75.496-346.972-60.876v-434.626l297.928-297.928c9.212-0.494 18.484-0.76 27.82-0.76 260.052 0 474.802 193.882 507.632 444.978l-215.852 215.854c-0.002 0.002-0.004 0.004-0.008 0.008v0c-10.744 10.742-25.586 17.386-41.98 17.386-24.528 0-45.578-14.876-54.632-36.094z" />
<glyph unicode="&#xe902;" d="M186.252 234.686l346.972-60.874v556.376l-346.972-60.874z" />
<glyph unicode="&#xe903;" d="M558.212 266c12.97-10.482 29.47-16.77 47.444-16.77 41.728 0 75.556 33.828 75.556 75.556v181.664h-123.002l0.002-240.45z" />
<glyph unicode="&#xe904;" d="M605.656 534.708c33.154 0 60.032 26.876 60.032 60.032 0 33.154-26.876 60.032-60.032 60.032-19.302 0-36.464-9.12-47.444-23.274v-73.516c10.982-14.156 28.142-23.274 47.444-23.274z" />
<glyph unicode="&#xe905;" d="M836.524 467.526h-130.464v-160.468c13.714-16.14 34.152-26.376 56.964-26.376 19.962 0 39.090 7.984 53.126 22.174s21.81 33.406 21.592 53.362l-1.218 111.308z" />
<glyph unicode="&#xe906;" d="M821.176 554.86c0-32.792-26.584-59.376-59.376-59.376s-59.376 26.584-59.376 59.376c0 32.792 26.584 59.376 59.376 59.376s59.376-26.584 59.376-59.376z" />
<glyph unicode="&#xe907;" d="M428.166 514.208h-51.76v-151.226h-31.238v151.226h-51.76v31.066h134.756v-31.066h0.002z" />
<glyph unicode="&#xe908;" d="M1024 448c0-282.77-229.23-512-512-512s-512 229.23-512 512c0 282.77 229.23 512 512 512s512-229.23 512-512z" />
<glyph unicode="&#xe909;" d="M1023.912 454.972l-199.29 199.29h-119.44v-24.812l-124.37 124.37-381.434-66.922v-477.796l271.45-271.45c13.584-1.082 27.31-1.652 41.172-1.652 282.77 0 512 229.23 512 512 0 2.332-0.058 4.65-0.088 6.972z" />
<glyph unicode="&#xe90a;" d="M580.812 142.18l-381.434 66.922v477.796l381.434 66.922z" />
<glyph unicode="&#xe90b;" d="M319.058 353.69v186.47h67.762c57.92 0 91.92-38.608 91.92-92.972 0-58.528-37.998-93.498-91.92-93.498h-67.762zM442.234 447.188c0 35.362-19.458 61.192-55.416 61.192h-31.518v-122.912h31.518c35.388 0 55.416 26.48 55.416 61.72z" />
<glyph unicode="&#xe90c;" d="M609.6 654.66h66.878v-258.72h-66.878v258.72z" />
<glyph unicode="&#xe90d;" d="M609.6 367.46h66.878v-126.12h-66.878v126.12z" />
<glyph unicode="&#xe90e;" d="M705.18 466.58h119.44v-225.24h-119.44v225.24z" />
<glyph unicode="&#xe90f;" d="M705.18 654.26h119.44v-156.82h-119.44v156.82z" />
<glyph unicode="&#xe910;" d="M1024 448c0-282.77-229.23-512-512-512s-512 229.23-512 512c0 282.77 229.23 512 512 512s512-229.23 512-512z" />
<glyph unicode="&#xe911;" d="M999.76 291.986l-0.030 0.032c0.918 2.872 1.842 5.742 2.71 8.636l-270.19 270.188-14.28 14.886h-22.396l-148.096 148.094-356.494-62.544v-446.556l287.608-287.608c11.048-0.712 22.18-1.114 33.408-1.114 159.624 0 302.158 73.066 396.046 187.56l0.020-0.020c40.476 49.396 72.012 106.828 91.694 168.446z" />
<glyph unicode="&#xe912;" d="M547.48 162.176l-356.496 62.546v446.556l356.496 62.546z" />
<glyph unicode="&#xe913;" d="M368.438 366.046c-50.188 0-83.774 43.032-83.774 87.166 0 44.924 35.2 87.166 84.502 87.166 49.56 0 83.29-44.214 83.29-87.65 0-45.924-35.654-86.682-84.018-86.682zM318.562 453.212c0-30.638 19.214-57.626 50.122-57.626 30.97 0 50.118 27.716 50.118 57.626 0 28.538-17.946 57.384-50.118 57.384-31.742-0.002-50.122-27.816-50.122-57.384z" />
<glyph unicode="&#xe914;" d="M717.97 585.73h-152.904v-163.5l152.904 128.422z" />
<glyph unicode="&#xe915;" d="M565.066 402.038v-91.766h152.904v220.188c-30.982-26.022-152.904-128.422-152.904-128.422z" />
</font>
</defs>
</svg>
